  0
SECTION
  2
HEADER
  9
$ACADVER
  1
AC1015
  9
$ACADMAINTVER
 70
    20
  9
$DWGCODEPAGE
  3
ANSI_932
  9
$INSBASE
 10
0.0
 20
0.0
 30
0.0
  9
$EXTMIN
 10
-37.69028683014995
 20
-46.58690848605488
 30
0.0
  9
$EXTMAX
 10
100.2949758185044
 20
140.0738363468559
 30
0.0
  9
$LIMMIN
 10
0.0
 20
0.0
  9
$LIMMAX
 10
420.0
 20
297.0
  9
$ORTHOMODE
 70
     1
  9
$REGENMODE
 70
     1
  9
$FILLMODE
 70
     1
  9
$QTEXTMODE
 70
     0
  9
$MIRRTEXT
 70
     1
  9
$LTSCALE
 40
1.0
  9
$ATTMODE
 70
     1
  9
$TEXTSIZE
 40
2.5
  9
$TRACEWID
 40
1.0
  9
$TEXTSTYLE
  7
Standard
  9
$CLAYER
  8
0
  9
$CELTYPE
  6
ByLayer
  9
$CECOLOR
 62
   256
  9
$CELTSCALE
 40
1.0
  9
$DISPSILH
 70
     0
  9
$DIMSCALE
 40
1.0
  9
$DIMASZ
 40
5.0
  9
$DIMEXO
 40
5.0
  9
$DIMDLI
 40
3.75
  9
$DIMRND
 40
0.0
  9
$DIMDLE
 40
0.0
  9
$DIMEXE
 40
1.25
  9
$DIMTP
 40
0.0
  9
$DIMTM
 40
0.0
  9
$DIMTXT
 40
7.0
  9
$DIMCEN
 40
2.5
  9
$DIMTSZ
 40
0.0
  9
$DIMTOL
 70
     0
  9
$DIMLIM
 70
     0
  9
$DIMTIH
 70
     0
  9
$DIMTOH
 70
     0
  9
$DIMSE1
 70
     0
  9
$DIMSE2
 70
     0
  9
$DIMTAD
 70
     1
  9
$DIMZIN
 70
     8
  9
$DIMBLK
  1

  9
$DIMASO
 70
     1
  9
$DIMSHO
 70
     1
  9
$DIMPOST
  1

  9
$DIMAPOST
  1

  9
$DIMALT
 70
     0
  9
$DIMALTD
 70
     3
  9
$DIMALTF
 40
0.03937007874016
  9
$DIMLFAC
 40
1.0
  9
$DIMTOFL
 70
     1
  9
$DIMTVP
 40
0.0
  9
$DIMTIX
 70
     0
  9
$DIMSOXD
 70
     0
  9
$DIMSAH
 70
     0
  9
$DIMBLK1
  1

  9
$DIMBLK2
  1

  9
$DIMSTYLE
  2
ISO-25
  9
$DIMCLRD
 70
     5
  9
$DIMCLRE
 70
     5
  9
$DIMCLRT
 70
     5
  9
$DIMTFAC
 40
1.0
  9
$DIMGAP
 40
3.0
  9
$DIMJUST
 70
     0
  9
$DIMSD1
 70
     0
  9
$DIMSD2
 70
     0
  9
$DIMTOLJ
 70
     0
  9
$DIMTZIN
 70
     8
  9
$DIMALTZ
 70
     0
  9
$DIMALTTZ
 70
     0
  9
$DIMUPT
 70
     0
  9
$DIMDEC
 70
     2
  9
$DIMTDEC
 70
     2
  9
$DIMALTU
 70
     2
  9
$DIMALTTD
 70
     3
  9
$DIMTXSTY
  7
Standard
  9
$DIMAUNIT
 70
     0
  9
$DIMADEC
 70
     0
  9
$DIMALTRND
 40
0.0
  9
$DIMAZIN
 70
     0
  9
$DIMDSEP
 70
    46
  9
$DIMATFIT
 70
     3
  9
$DIMFRAC
 70
     0
  9
$DIMLDRBLK
  1

  9
$DIMLUNIT
 70
     2
  9
$DIMLWD
 70
    -2
  9
$DIMLWE
 70
    -2
  9
$DIMTMOVE
 70
     0
  9
$LUNITS
 70
     2
  9
$LUPREC
 70
     4
  9
$SKETCHINC
 40
1.0
  9
$FILLETRAD
 40
4.0
  9
$AUNITS
 70
     0
  9
$AUPREC
 70
     0
  9
$MENU
  1
.
  9
$ELEVATION
 40
0.0
  9
$PELEVATION
 40
0.0
  9
$THICKNESS
 40
0.0
  9
$LIMCHECK
 70
     0
  9
$CHAMFERA
 40
10.0
  9
$CHAMFERB
 40
10.0
  9
$CHAMFERC
 40
20.0
  9
$CHAMFERD
 40
0.0
  9
$SKPOLY
 70
     0
  9
$TDCREATE
 40
2457229.701635197
  9
$TDUCREATE
 40
2457229.326635197
  9
$TDUPDATE
 40
2457276.605749063
  9
$TDUUPDATE
 40
2457276.230749063
  9
$TDINDWG
 40
0.0179671296
  9
$TDUSRTIMER
 40
0.0179653241
  9
$USRTIMER
 70
     1
  9
$ANGBASE
 50
0.0
  9
$ANGDIR
 70
     0
  9
$PDMODE
 70
     0
  9
$PDSIZE
 40
0.0
  9
$PLINEWID
 40
0.0
  9
$SPLFRAME
 70
     0
  9
$SPLINETYPE
 70
     6
  9
$SPLINESEGS
 70
     8
  9
$HANDSEED
  5
236
  9
$SURFTAB1
 70
     6
  9
$SURFTAB2
 70
     6
  9
$SURFTYPE
 70
     6
  9
$SURFU
 70
     6
  9
$SURFV
 70
     6
  9
$UCSBASE
  2

  9
$UCSNAME
  2

  9
$UCSORG
 10
0.0
 20
0.0
 30
0.0
  9
$UCSXDIR
 10
1.0
 20
0.0
 30
0.0
  9
$UCSYDIR
 10
0.0
 20
1.0
 30
0.0
  9
$UCSORTHOREF
  2

  9
$UCSORTHOVIEW
 70
     0
  9
$UCSORGTOP
 10
0.0
 20
0.0
 30
0.0
  9
$UCSORGBOTTOM
 10
0.0
 20
0.0
 30
0.0
  9
$UCSORGLEFT
 10
0.0
 20
0.0
 30
0.0
  9
$UCSORGRIGHT
 10
0.0
 20
0.0
 30
0.0
  9
$UCSORGFRONT
 10
0.0
 20
0.0
 30
0.0
  9
$UCSORGBACK
 10
0.0
 20
0.0
 30
0.0
  9
$PUCSBASE
  2

  9
$PUCSNAME
  2

  9
$PUCSORG
 10
0.0
 20
0.0
 30
0.0
  9
$PUCSXDIR
 10
1.0
 20
0.0
 30
0.0
  9
$PUCSYDIR
 10
0.0
 20
1.0
 30
0.0
  9
$PUCSORTHOREF
  2

  9
$PUCSORTHOVIEW
 70
     0
  9
$PUCSORGTOP
 10
0.0
 20
0.0
 30
0.0
  9
$PUCSORGBOTTOM
 10
0.0
 20
0.0
 30
0.0
  9
$PUCSORGLEFT
 10
0.0
 20
0.0
 30
0.0
  9
$PUCSORGRIGHT
 10
0.0
 20
0.0
 30
0.0
  9
$PUCSORGFRONT
 10
0.0
 20
0.0
 30
0.0
  9
$PUCSORGBACK
 10
0.0
 20
0.0
 30
0.0
  9
$USERI1
 70
     0
  9
$USERI2
 70
     0
  9
$USERI3
 70
     0
  9
$USERI4
 70
     0
  9
$USERI5
 70
     0
  9
$USERR1
 40
0.0
  9
$USERR2
 40
0.0
  9
$USERR3
 40
0.0
  9
$USERR4
 40
0.0
  9
$USERR5
 40
0.0
  9
$WORLDVIEW
 70
     1
  9
$SHADEDGE
 70
     3
  9
$SHADEDIF
 70
    70
  9
$TILEMODE
 70
     1
  9
$MAXACTVP
 70
    64
  9
$PINSBASE
 10
0.0
 20
0.0
 30
0.0
  9
$PLIMCHECK
 70
     0
  9
$PEXTMIN
 10
1.000000000000000E+20
 20
1.000000000000000E+20
 30
1.000000000000000E+20
  9
$PEXTMAX
 10
-1.000000000000000E+20
 20
-1.000000000000000E+20
 30
-1.000000000000000E+20
  9
$PLIMMIN
 10
0.0
 20
0.0
  9
$PLIMMAX
 10
420.0
 20
297.0
  9
$UNITMODE
 70
     0
  9
$VISRETAIN
 70
     1
  9
$PLINEGEN
 70
     0
  9
$PSLTSCALE
 70
     1
  9
$TREEDEPTH
 70
  3020
  9
$CMLSTYLE
  2
Standard
  9
$CMLJUST
 70
     0
  9
$CMLSCALE
 40
20.0
  9
$PROXYGRAPHICS
 70
     1
  9
$MEASUREMENT
 70
     1
  9
$CELWEIGHT
370
    -1
  9
$ENDCAPS
280
     0
  9
$JOINSTYLE
280
     0
  9
$LWDISPLAY
290
     0
  9
$INSUNITS
 70
     4
  9
$HYPERLINKBASE
  1

  9
$STYLESHEET
  1
monochrome.ctb
  9
$XEDIT
290
     1
  9
$CEPSNTYPE
380
     0
  9
$PSTYLEMODE
290
     1
  9
$FINGERPRINTGUID
  2
{FB2BCB4F-F75E-4475-AED9-EBB68D6301DA}
  9
$VERSIONGUID
  2
{6A89C2BF-6B36-4EFC-97A6-B7B18821F12E}
  9
$EXTNAMES
290
     1
  9
$PSVPSCALE
 40
0.0
  9
$OLESTARTUP
290
     0
  0
ENDSEC
  0
SECTION
  2
CLASSES
  0
CLASS
  1
ACDBDICTIONARYWDFLT
  2
AcDbDictionaryWithDefault
  3
ObjectDBX Classes
 90
        0
280
     0
281
     0
  0
CLASS
  1
ACDBPLACEHOLDER
  2
AcDbPlaceHolder
  3
ObjectDBX Classes
 90
        0
280
     0
281
     0
  0
CLASS
  1
LAYOUT
  2
AcDbLayout
  3
ObjectDBX Classes
 90
        0
280
     0
281
     0
  0
CLASS
  1
MATERIAL
  2
AcDbMaterial
  3
ObjectDBX Classes
 90
     1024
280
     0
281
     0
  0
CLASS
  1
VISUALSTYLE
  2
AcDbVisualStyle
  3
ObjectDBX Classes
 90
     4095
280
     0
281
     0
  0
CLASS
  1
TABLESTYLE
  2
AcDbTableStyle
  3
ObjectDBX Classes
 90
     4095
280
     0
281
     0
  0
CLASS
  1
DICTIONARYVAR
  2
AcDbDictionaryVar
  3
ObjectDBX Classes
 90
        0
280
     0
281
     0
  0
ENDSEC
  0
SECTION
  2
TABLES
  0
TABLE
  2
VPORT
  5
8
102
{ACAD_XDICTIONARY
360
207
102
}
330
0
100
AcDbSymbolTable
 70
     1
  0
VPORT
  5
1EA
330
8
100
AcDbSymbolTableRecord
100
AcDbViewportTableRecord
  2
*Active
 70
     0
 10
0.0
 20
0.0
 11
1.0
 21
1.0
 12
30.78871404493771
 22
53.14457730383167
 13
0.0
 23
0.0
 14
10.0
 24
10.0
 15
10.0
 25
10.0
 16
0.0
 26
0.0
 36
1.0
 17
0.0
 27
0.0
 37
0.0
 40
254.7055112925235
 41
1.848368522072936
 42
50.0
 43
0.0
 44
0.0
 50
0.0
 51
0.0
 71
     0
 72
   100
 73
     1
 74
     3
 75
     0
 76
     0
 77
     0
 78
     0
281
     0
 65
     1
110
0.0
120
0.0
130
0.0
111
1.0
121
0.0
131
0.0
112
0.0
122
1.0
132
0.0
 79
     0
146
0.0
  0
ENDTAB
  0
TABLE
  2
LTYPE
  5
5
330
0
100
AcDbSymbolTable
 70
     1
  0
LTYPE
  5
14
330
5
100
AcDbSymbolTableRecord
100
AcDbLinetypeTableRecord
  2
ByBlock
 70
     0
  3

 72
    65
 73
     0
 40
0.0
  0
LTYPE
  5
15
330
5
100
AcDbSymbolTableRecord
100
AcDbLinetypeTableRecord
  2
ByLayer
 70
     0
  3

 72
    65
 73
     0
 40
0.0
  0
LTYPE
  5
16
330
5
100
AcDbSymbolTableRecord
100
AcDbLinetypeTableRecord
  2
Continuous
 70
     0
  3
Solid line
 72
    65
 73
     0
 40
0.0
  0
ENDTAB
  0
TABLE
  2
LAYER
  5
2
330
0
100
AcDbSymbolTable
 70
     2
  0
LAYER
  5
10
330
2
100
AcDbSymbolTableRecord
100
AcDbLayerTableRecord
  2
0
 70
     0
 62
     7
  6
Continuous
370
    -3
390
F
  0
LAYER
  5
40
330
2
100
AcDbSymbolTableRecord
100
AcDbLayerTableRecord
  2
Defpoints
 70
     0
 62
     7
  6
Continuous
290
     0
370
    -3
390
F
  0
ENDTAB
  0
TABLE
  2
STYLE
  5
3
330
0
100
AcDbSymbolTable
 70
     1
  0
STYLE
  5
11
330
3
100
AcDbSymbolTableRecord
100
AcDbTextStyleTableRecord
  2
Standard
 70
     0
 40
0.0
 41
1.0
 50
0.0
 71
     0
 42
2.5
  3
txt
  4

  0
ENDTAB
  0
TABLE
  2
VIEW
  5
6
330
0
100
AcDbSymbolTable
 70
     0
  0
ENDTAB
  0
TABLE
  2
UCS
  5
7
330
0
100
AcDbSymbolTable
 70
     0
  0
ENDTAB
  0
TABLE
  2
APPID
  5
9
330
0
100
AcDbSymbolTable
 70
     1
  0
APPID
  5
12
330
9
100
AcDbSymbolTableRecord
100
AcDbRegAppTableRecord
  2
ACAD
 70
     0
  0
ENDTAB
  0
TABLE
  2
DIMSTYLE
  5
A
330
0
100
AcDbSymbolTable
 70
     1
100
AcDbDimStyleTable
 71
     1
340
27
  0
DIMSTYLE
105
27
102
{ACAD_REACTORS
330
3F
330
169
330
176
330
185
330
1A7
330
1B5
330
1BE
330
1C8
330
1D6
102
}
330
A
100
AcDbSymbolTableRecord
100
AcDbDimStyleTableRecord
  2
ISO-25
 70
     0
 41
5.0
 42
5.0
 43
3.75
 44
1.25
 73
     0
 74
     0
 77
     1
 78
     8
140
7.0
141
2.5
143
0.03937007874016
147
3.0
171
     3
172
     1
176
     5
177
     5
178
     5
271
     2
272
     2
274
     3
283
     0
284
     8
340
11
  0
ENDTAB
  0
TABLE
  2
BLOCK_RECORD
  5
1
330
0
100
AcDbSymbolTable
 70
    10
  0
BLOCK_RECORD
  5
1F
330
1
100
AcDbSymbolTableRecord
100
AcDbBlockTableRecord
  2
*Model_Space
340
22
  0
BLOCK_RECORD
  5
1B
330
1
100
AcDbSymbolTableRecord
100
AcDbBlockTableRecord
  2
*Paper_Space
340
1E
  0
BLOCK_RECORD
  5
23
330
1
100
AcDbSymbolTableRecord
100
AcDbBlockTableRecord
  2
*Paper_Space0
340
26
  0
BLOCK_RECORD
  5
41
330
1
100
AcDbSymbolTableRecord
100
AcDbBlockTableRecord
  2
*D1
340
0
  0
BLOCK_RECORD
  5
16A
330
1
100
AcDbSymbolTableRecord
100
AcDbBlockTableRecord
  2
*D2
340
0
  0
BLOCK_RECORD
  5
177
330
1
100
AcDbSymbolTableRecord
100
AcDbBlockTableRecord
  2
*D3
340
0
  0
BLOCK_RECORD
  5
186
330
1
100
AcDbSymbolTableRecord
100
AcDbBlockTableRecord
  2
*D4
340
0
  0
BLOCK_RECORD
  5
1A8
330
1
100
AcDbSymbolTableRecord
100
AcDbBlockTableRecord
  2
*D5
340
0
  0
BLOCK_RECORD
  5
1B6
330
1
100
AcDbSymbolTableRecord
100
AcDbBlockTableRecord
  2
*D6
340
0
  0
BLOCK_RECORD
  5
1BF
330
1
100
AcDbSymbolTableRecord
100
AcDbBlockTableRecord
  2
*D7
340
0
  0
BLOCK_RECORD
  5
1C9
330
1
100
AcDbSymbolTableRecord
100
AcDbBlockTableRecord
  2
*D8
340
0
  0
BLOCK_RECORD
  5
1D7
330
1
100
AcDbSymbolTableRecord
100
AcDbBlockTableRecord
  2
*D9
340
0
  0
ENDTAB
  0
ENDSEC
  0
SECTION
  2
BLOCKS
  0
BLOCK
  5
20
330
1F
100
AcDbEntity
  8
0
100
AcDbBlockBegin
  2
*Model_Space
 70
     0
 10
0.0
 20
0.0
 30
0.0
  3
*Model_Space
  1

  0
ENDBLK
  5
21
330
1F
100
AcDbEntity
  8
0
100
AcDbBlockEnd
  0
BLOCK
  5
1C
330
1B
100
AcDbEntity
 67
     1
  8
0
100
AcDbBlockBegin
  2
*Paper_Space
 70
     0
 10
0.0
 20
0.0
 30
0.0
  3
*Paper_Space
  1

  0
ENDBLK
  5
1D
330
1B
100
AcDbEntity
 67
     1
  8
0
100
AcDbBlockEnd
  0
BLOCK
  5
24
330
23
100
AcDbEntity
 67
     1
  8
0
100
AcDbBlockBegin
  2
*Paper_Space0
 70
     0
 10
0.0
 20
0.0
 30
0.0
  3
*Paper_Space0
  1

  0
ENDBLK
  5
25
330
23
100
AcDbEntity
 67
     1
  8
0
100
AcDbBlockEnd
  0
BLOCK
  5
4B
330
41
100
AcDbEntity
  8
0
100
AcDbBlockBegin
  2
*D1
 70
     1
 10
0.0
 20
0.0
 30
0.0
  3
*D1
  1

  0
LINE
  5
144
330
41
100
AcDbEntity
  8
0
 62
     5
370
    -2
100
AcDbLine
 10
-5.0
 20
100.0
 30
0.0
 11
-28.94028683014993
 21
100.0
 31
0.0
  0
LINE
  5
145
330
41
100
AcDbEntity
  8
0
 62
     5
370
    -2
100
AcDbLine
 10
-5.0
 20
0.0000000000000014
 30
0.0
 11
-28.94028683014995
 21
0.0000000000000082
 31
0.0
  0
LINE
  5
146
330
41
100
AcDbEntity
  8
0
 62
     5
370
    -2
100
AcDbLine
 10
-27.69028683014993
 20
94.99999999999998
 30
0.0
 11
-27.69028683014995
 21
5.000000000000007
 31
0.0
  0
SOLID
  5
147
330
41
100
AcDbEntity
  8
0
 62
     5
100
AcDbTrace
 10
-28.52362016348326
 20
94.99999999999998
 30
0.0
 11
-26.8569534968166
 21
94.99999999999998
 31
0.0
 12
-27.69028683014993
 22
100.0
 32
0.0
 13
-27.69028683014993
 23
100.0
 33
0.0
  0
SOLID
  5
148
330
41
100
AcDbEntity
  8
0
 62
     5
100
AcDbTrace
 10
-28.52362016348328
 20
5.000000000000007
 30
0.0
 11
-26.85695349681662
 21
5.000000000000007
 31
0.0
 12
-27.69028683014995
 22
0.0000000000000078
 32
0.0
 13
-27.69028683014995
 23
0.0000000000000078
 33
0.0
  0
MTEXT
  5
149
330
41
100
AcDbEntity
  8
0
 62
     5
100
AcDbMText
 10
-34.19028683014995
 20
50.0
 30
0.0
 40
7.0
 41
0.0
 71
     5
 72
     1
  1
100
 11
0.0000000000000001
 21
1.0
 31
0.0
 73
     1
 44
1.0
1001
ACAD
1000
MTEXTBEGIN
1070
    73
1070
     1
1070
    44
1040
1.0
1070
    74
1070
     0
1000
MTEXTEND
  0
POINT
  5
14A
330
41
100
AcDbEntity
  8
Defpoints
 62
     0
100
AcDbPoint
 10
0.0
 20
100.0
 30
0.0
  0
POINT
  5
14B
330
41
100
AcDbEntity
  8
Defpoints
 62
     0
100
AcDbPoint
 10
0.0
 20
0.0
 30
0.0
  0
POINT
  5
14C
330
41
100
AcDbEntity
  8
Defpoints
 62
     0
100
AcDbPoint
 10
-27.69028683014995
 20
0.0000000000000078
 30
0.0
  0
ENDBLK
  5
4C
330
41
100
AcDbEntity
  8
0
100
AcDbBlockEnd
  0
BLOCK
  5
174
330
16A
100
AcDbEntity
  8
0
100
AcDbBlockBegin
  2
*D2
 70
     1
 10
0.0
 20
0.0
 30
0.0
  3
*D2
  1

  0
LINE
  5
19E
330
16A
100
AcDbEntity
  8
0
 62
     5
370
    -2
100
AcDbLine
 10
0.0000000000000003
 20
105.0
 30
0.0
 11
0.0000000000000019
 21
131.3238363468559
 31
0.0
  0
LINE
  5
19F
330
16A
100
AcDbEntity
  8
0
 62
     5
370
    -2
100
AcDbLine
 10
50.0
 20
105.0
 30
0.0
 11
50.0
 21
131.3238363468559
 31
0.0
  0
LINE
  5
1A0
330
16A
100
AcDbEntity
  8
0
 62
     5
370
    -2
100
AcDbLine
 10
5.000000000000001
 20
130.0738363468559
 30
0.0
 11
45.0
 21
130.0738363468559
 31
0.0
  0
SOLID
  5
1A1
330
16A
100
AcDbEntity
  8
0
 62
     5
100
AcDbTrace
 10
5.000000000000001
 20
130.9071696801893
 30
0.0
 11
5.000000000000001
 21
129.2405030135226
 31
0.0
 12
0.0000000000000018
 22
130.0738363468559
 32
0.0
 13
0.0000000000000018
 23
130.0738363468559
 33
0.0
  0
SOLID
  5
1A2
330
16A
100
AcDbEntity
  8
0
 62
     5
100
AcDbTrace
 10
45.0
 20
130.9071696801893
 30
0.0
 11
45.0
 21
129.2405030135226
 31
0.0
 12
50.0
 22
130.0738363468559
 32
0.0
 13
50.0
 23
130.0738363468559
 33
0.0
  0
MTEXT
  5
1A3
330
16A
100
AcDbEntity
  8
0
 62
     5
100
AcDbMText
 10
25.0
 20
136.5738363468559
 30
0.0
 40
7.0
 41
0.0
 71
     5
 72
     1
  1
50
 73
     1
 44
1.0
1001
ACAD
1000
MTEXTBEGIN
1070
    73
1070
     1
1070
    44
1040
1.0
1070
    74
1070
     0
1000
MTEXTEND
  0
POINT
  5
1A4
330
16A
100
AcDbEntity
  8
Defpoints
 62
     0
100
AcDbPoint
 10
0.0
 20
100.0
 30
0.0
  0
POINT
  5
1A5
330
16A
100
AcDbEntity
  8
Defpoints
 62
     0
100
AcDbPoint
 10
50.0
 20
100.0
 30
0.0
  0
POINT
  5
1A6
330
16A
100
AcDbEntity
  8
Defpoints
 62
     0
100
AcDbPoint
 10
50.0
 20
130.0738363468559
 30
0.0
  0
ENDBLK
  5
175
330
16A
100
AcDbEntity
  8
0
100
AcDbBlockEnd
  0
BLOCK
  5
183
330
177
100
AcDbEntity
  8
0
100
AcDbBlockBegin
  2
*D3
 70
     1
 10
0.0
 20
0.0
 30
0.0
  3
*D3
  1

  0
LINE
  5
193
330
177
100
AcDbEntity
  8
0
 62
     5
370
    -2
100
AcDbLine
 10
5.000000000000003
 20
88.2008556785273
 30
0.0
 11
5.000000000000005
 21
110.3353366755178
 31
0.0
  0
LINE
  5
194
330
177
100
AcDbEntity
  8
0
 62
     5
370
    -2
100
AcDbLine
 10
0.0000000000000003
 20
105.0
 30
0.0
 11
0.0000000000000006
 21
110.3353366755178
 31
0.0
  0
LINE
  5
195
330
177
100
AcDbEntity
  8
0
 62
     5
370
    -2
100
AcDbLine
 10
10.0
 20
109.0853366755178
 30
0.0
 11
15.0
 21
109.0853366755178
 31
0.0
  0
LINE
  5
196
330
177
100
AcDbEntity
  8
0
 62
     5
370
    -2
100
AcDbLine
 10
-4.999999999999999
 20
109.0853366755178
 30
0.0
 11
-20.66666666666666
 21
109.0853366755178
 31
0.0
  0
LINE
  5
197
330
177
100
AcDbEntity
  8
0
 62
     5
370
    -2
100
AcDbLine
 10
5.000000000000005
 20
109.0853366755178
 30
0.0
 11
0.0000000000000006
 21
109.0853366755178
 31
0.0
  0
SOLID
  5
198
330
177
100
AcDbEntity
  8
0
 62
     5
100
AcDbTrace
 10
10.0
 20
109.9186700088512
 30
0.0
 11
10.0
 21
108.2520033421845
 31
0.0
 12
5.000000000000005
 22
109.0853366755178
 32
0.0
 13
5.000000000000005
 23
109.0853366755178
 33
0.0
  0
SOLID
  5
199
330
177
100
AcDbEntity
  8
0
 62
     5
100
AcDbTrace
 10
-4.999999999999999
 20
109.9186700088512
 30
0.0
 11
-4.999999999999999
 21
108.2520033421845
 31
0.0
 12
0.0000000000000006
 22
109.0853366755178
 32
0.0
 13
0.0000000000000006
 23
109.0853366755178
 33
0.0
  0
MTEXT
  5
19A
330
177
100
AcDbEntity
  8
0
 62
     5
100
AcDbMText
 10
-15.33333333333333
 20
115.5853366755178
 30
0.0
 40
7.0
 41
0.0
 71
     5
 72
     1
  1
5
 73
     1
 44
1.0
1001
ACAD
1000
MTEXTBEGIN
1070
    73
1070
     1
1070
    44
1040
1.0
1070
    74
1070
     0
1000
MTEXTEND
  0
POINT
  5
19B
330
177
100
AcDbEntity
  8
Defpoints
 62
     0
100
AcDbPoint
 10
5.000000000000003
 20
83.2008556785273
 30
0.0
  0
POINT
  5
19C
330
177
100
AcDbEntity
  8
Defpoints
 62
     0
100
AcDbPoint
 10
0.0
 20
100.0
 30
0.0
  0
POINT
  5
19D
330
177
100
AcDbEntity
  8
Defpoints
 62
     0
100
AcDbPoint
 10
0.0000000000000006
 20
109.0853366755178
 30
0.0
  0
ENDBLK
  5
184
330
177
100
AcDbEntity
  8
0
100
AcDbBlockEnd
  0
BLOCK
  5
191
330
186
100
AcDbEntity
  8
0
100
AcDbBlockBegin
  2
*D4
 70
     1
 10
0.0
 20
0.0
 30
0.0
  3
*D4
  1

  0
LINE
  5
187
330
186
100
AcDbEntity
  8
0
 62
     5
370
    -2
100
AcDbLine
 10
27.50000000000001
 20
109.5032728335383
 30
0.0
 11
27.50000000000001
 21
122.1573976373191
 31
0.0
  0
LINE
  5
188
330
186
100
AcDbEntity
  8
0
 62
     5
370
    -2
100
AcDbLine
 10
5.000000000000003
 20
88.2008556785273
 30
0.0
 11
5.000000000000006
 21
122.1573976373191
 31
0.0
  0
LINE
  5
189
330
186
100
AcDbEntity
  8
0
 62
     5
370
    -2
100
AcDbLine
 10
22.50000000000001
 20
120.9073976373191
 30
0.0
 11
10.0
 21
120.9073976373191
 31
0.0
  0
LINE
  5
18A
330
186
100
AcDbEntity
  8
0
 62
     5
370
    -2
100
AcDbLine
 10
5.000000000000006
 20
120.9073976373191
 30
0.0
 11
-26.99999999999999
 21
120.9073976373191
 31
0.0
  0
SOLID
  5
18B
330
186
100
AcDbEntity
  8
0
 62
     5
100
AcDbTrace
 10
22.50000000000001
 20
121.7407309706524
 30
0.0
 11
22.50000000000001
 21
120.0740643039858
 31
0.0
 12
27.50000000000001
 22
120.9073976373191
 32
0.0
 13
27.50000000000001
 23
120.9073976373191
 33
0.0
  0
SOLID
  5
18C
330
186
100
AcDbEntity
  8
0
 62
     5
100
AcDbTrace
 10
10.0
 20
121.7407309706524
 30
0.0
 11
10.0
 21
120.0740643039858
 31
0.0
 12
5.000000000000006
 22
120.9073976373191
 32
0.0
 13
5.000000000000006
 23
120.9073976373191
 33
0.0
  0
MTEXT
  5
18D
330
186
100
AcDbEntity
  8
0
 62
     5
100
AcDbMText
 10
-13.49999999999999
 20
127.4073976373191
 30
0.0
 40
7.0
 41
0.0
 71
     5
 72
     1
  1
22.5
 73
     1
 44
1.0
1001
ACAD
1000
MTEXTBEGIN
1070
    73
1070
     1
1070
    44
1040
1.0
1070
    74
1070
     0
1000
MTEXTEND
  0
POINT
  5
18E
330
186
100
AcDbEntity
  8
Defpoints
 62
     0
100
AcDbPoint
 10
27.50000000000001
 20
104.5032728335383
 30
0.0
  0
POINT
  5
18F
330
186
100
AcDbEntity
  8
Defpoints
 62
     0
100
AcDbPoint
 10
5.000000000000003
 20
83.2008556785273
 30
0.0
  0
POINT
  5
190
330
186
100
AcDbEntity
  8
Defpoints
 62
     0
100
AcDbPoint
 10
5.000000000000006
 20
120.9073976373191
 30
0.0
  0
ENDBLK
  5
192
330
186
100
AcDbEntity
  8
0
100
AcDbBlockEnd
  0
BLOCK
  5
1B3
330
1A8
100
AcDbEntity
  8
0
100
AcDbBlockBegin
  2
*D5
 70
     1
 10
0.0
 20
0.0
 30
0.0
  3
*D5
  1

  0
LINE
  5
1A9
330
1A8
100
AcDbEntity
  8
0
 62
     5
370
    -2
100
AcDbLine
 10
27.50000000000001
 20
109.5032728335383
 30
0.0
 11
27.50000000000001
 21
122.1573976373191
 31
0.0
  0
LINE
  5
1AA
330
1A8
100
AcDbEntity
  8
0
 62
     5
370
    -2
100
AcDbLine
 10
50.0
 20
105.0
 30
0.0
 11
50.0
 21
122.1573976373191
 31
0.0
  0
LINE
  5
1AB
330
1A8
100
AcDbEntity
  8
0
 62
     5
370
    -2
100
AcDbLine
 10
32.50000000000001
 20
120.9073976373191
 30
0.0
 11
45.0
 21
120.9073976373191
 31
0.0
  0
LINE
  5
1AC
330
1A8
100
AcDbEntity
  8
0
 62
     5
370
    -2
100
AcDbLine
 10
50.0
 20
120.9073976373191
 30
0.0
 11
82.0
 21
120.9073976373191
 31
0.0
  0
SOLID
  5
1AD
330
1A8
100
AcDbEntity
  8
0
 62
     5
100
AcDbTrace
 10
32.50000000000001
 20
121.7407309706524
 30
0.0
 11
32.50000000000001
 21
120.0740643039858
 31
0.0
 12
27.50000000000001
 22
120.9073976373191
 32
0.0
 13
27.50000000000001
 23
120.9073976373191
 33
0.0
  0
SOLID
  5
1AE
330
1A8
100
AcDbEntity
  8
0
 62
     5
100
AcDbTrace
 10
45.0
 20
121.7407309706524
 30
0.0
 11
45.0
 21
120.0740643039858
 31
0.0
 12
50.0
 22
120.9073976373191
 32
0.0
 13
50.0
 23
120.9073976373191
 33
0.0
  0
MTEXT
  5
1AF
330
1A8
100
AcDbEntity
  8
0
 62
     5
100
AcDbMText
 10
68.5
 20
127.4073976373191
 30
0.0
 40
7.0
 41
0.0
 71
     5
 72
     1
  1
22.5
 73
     1
 44
1.0
1001
ACAD
1000
MTEXTBEGIN
1070
    73
1070
     1
1070
    44
1040
1.0
1070
    74
1070
     0
1000
MTEXTEND
  0
POINT
  5
1B0
330
1A8
100
AcDbEntity
  8
Defpoints
 62
     0
100
AcDbPoint
 10
27.50000000000001
 20
104.5032728335383
 30
0.0
  0
POINT
  5
1B1
330
1A8
100
AcDbEntity
  8
Defpoints
 62
     0
100
AcDbPoint
 10
50.0
 20
100.0
 30
0.0
  0
POINT
  5
1B2
330
1A8
100
AcDbEntity
  8
Defpoints
 62
     0
100
AcDbPoint
 10
50.0
 20
120.9073976373191
 30
0.0
  0
ENDBLK
  5
1B4
330
1A8
100
AcDbEntity
  8
0
100
AcDbBlockEnd
  0
BLOCK
  5
1BC
330
1B6
100
AcDbEntity
  8
0
100
AcDbBlockBegin
  2
*D6
 70
     1
 10
0.0
 20
0.0
 30
0.0
  3
*D6
  1

  0
LINE
  5
1B7
330
1B6
100
AcDbEntity
  8
0
 62
     5
370
    -2
100
AcDbLine
 10
29.91210771059268
 20
26.83699222643165
 30
0.0
 11
10.42018695940113
 21
15.26794718342807
 31
0.0
  0
MTEXT
  5
1B8
330
1B6
100
AcDbEntity
  8
0
 62
     5
100
AcDbMText
 10
18.99839773639936
 20
27.91806224126459
 30
0.0
 40
7.0
 41
0.0
 71
     5
 72
     1
  1
R8
 11
0.8599376801996275
 21
0.510399046014864
 31
0.0
 73
     1
 44
1.0
1001
ACAD
1000
MTEXTBEGIN
1070
    73
1070
     1
1070
    44
1040
1.0
1070
    74
1070
     0
1000
MTEXTEND
  0
SOLID
  5
1B9
330
1B6
100
AcDbEntity
  8
0
 62
     5
100
AcDbTrace
 10
9.994854421055414
 20
15.98456191692775
 30
0.0
 11
10.84551949774685
 21
14.55133244992838
 31
0.0
 12
6.120498558402999
 22
12.71595195335374
 32
0.0
 13
6.120498558402999
 23
12.71595195335374
 33
0.0
  0
POINT
  5
1BA
330
1B6
100
AcDbEntity
  8
Defpoints
 62
     0
100
AcDbPoint
 10
6.120498558402999
 20
12.71595195335374
 30
0.0
  0
POINT
  5
1BB
330
1B6
100
AcDbEntity
  8
Defpoints
 62
     0
100
AcDbPoint
 10
12.99999999999997
 20
16.79914432147263
 30
0.0
  0
ENDBLK
  5
1BD
330
1B6
100
AcDbEntity
  8
0
100
AcDbBlockEnd
  0
BLOCK
  5
1C6
330
1BF
100
AcDbEntity
  8
0
100
AcDbBlockBegin
  2
*D7
 70
     1
 10
0.0
 20
0.0
 30
0.0
  3
*D7
  1

  0
LINE
  5
1C0
330
1BF
100
AcDbEntity
  8
0
 62
     5
370
    -2
100
AcDbLine
 10
73.07158580379365
 20
18.2950275601306
 30
0.0
 11
53.69402964949924
 21
6.535431679959184
 31
0.0
  0
MTEXT
  5
1C1
330
1BF
100
AcDbEntity
  8
0
 62
     5
100
AcDbMText
 10
62.14780113096799
 20
19.26904306283939
 30
0.0
 40
7.0
 41
0.0
 71
     5
 72
     1
  1
R4
 11
0.8548921832776946
 21
0.5188057005957978
 31
0.0
 73
     1
 44
1.0
1001
ACAD
1000
MTEXTBEGIN
1070
    73
1070
     1
1070
    44
1040
1.0
1070
    74
1070
     0
1000
MTEXTEND
  0
LINE
  5
1C2
330
1BF
100
AcDbEntity
  8
0
 62
     5
370
    -2
100
AcDbLine
 10
46.0
 20
1.866180374597007
 30
0.0
 11
49.41956873311077
 21
3.941403176980195
 31
0.0
  0
SOLID
  5
1C3
330
1BF
100
AcDbEntity
  8
0
 62
     5
100
AcDbTrace
 10
53.2616915656694
 20
7.247841832690596
 30
0.0
 11
54.12636773332907
 21
5.823021527227773
 31
0.0
 12
49.41956873311077
 22
3.941403176980195
 32
0.0
 13
49.41956873311077
 23
3.941403176980195
 33
0.0
  0
POINT
  5
1C4
330
1BF
100
AcDbEntity
  8
Defpoints
 62
     0
100
AcDbPoint
 10
49.41956873311077
 20
3.941403176980195
 30
0.0
  0
POINT
  5
1C5
330
1BF
100
AcDbEntity
  8
Defpoints
 62
     0
100
AcDbPoint
 10
46.0
 20
1.866180374597007
 30
0.0
  0
ENDBLK
  5
1C7
330
1BF
100
AcDbEntity
  8
0
100
AcDbBlockEnd
  0
BLOCK
  5
1D3
330
1C9
100
AcDbEntity
  8
0
100
AcDbBlockBegin
  2
*D8
 70
     1
 10
0.0
 20
0.0
 30
0.0
  3
*D8
  1

  0
ARC
  5
1CA
330
1C9
100
AcDbEntity
  8
0
 62
     5
370
    -2
100
AcDbCircle
 10
5.000000000000001
 20
9.468494929333299
 30
0.0
 40
37.74572999728342
100
AcDbArc
 50
2.59526348365129
 51
82.40473651634871
  0
SOLID
  5
1CB
330
1C9
100
AcDbEntity
  8
0
 62
     5
100
AcDbTrace
 10
43.54016466990164
 20
11.16015042689261
 30
0.0
 11
41.87386497492023
 21
11.19512333473082
 31
0.0
 12
42.6020960988963
 22
6.178737795867508
 32
0.0
 13
42.6020960988963
 23
6.178737795867508
 33
0.0
  0
SOLID
  5
1CC
330
1C9
100
AcDbEntity
  8
0
 62
     5
100
AcDbTrace
 10
9.933827152897645
 20
46.05155813437812
 30
0.0
 11
10.04421491508867
 21
47.71456514570917
 31
0.0
 12
5.000000000000003
 22
47.21422492661672
 32
0.0
 13
5.000000000000003
 23
47.21422492661672
 33
0.0
  0
MTEXT
  5
1CD
102
{ACAD_XDICTIONARY
360
22C
102
}
330
1C9
100
AcDbEntity
  8
0
 62
     5
100
AcDbMText
 10
37.62137397761693
 20
39.36047684430446
 30
0.0
 40
7.0
 41
0.0
 71
     5
 72
     1
  1
95\U+00B0
 11
0.6755902076156604
 21
-0.737277336810124
 31
0.0
 73
     1
 44
1.0
1001
ACAD
1000
MTEXTBEGIN
1070
    73
1070
     1
1070
    44
1040
1.0
1070
    74
1070
     0
1000
MTEXTEND
  0
POINT
  5
1CE
330
1C9
100
AcDbEntity
  8
Defpoints
 62
     0
100
AcDbPoint
 10
38.730816358407
 20
26.4087476081821
 30
0.0
  0
POINT
  5
1CF
330
1C9
100
AcDbEntity
  8
Defpoints
 62
     0
100
AcDbPoint
 10
12.30275405801874
 20
8.829586736738718
 30
0.0
  0
POINT
  5
1D0
330
1C9
100
AcDbEntity
  8
Defpoints
 62
     0
100
AcDbPoint
 10
5.0
 20
16.79914432147268
 30
0.0
  0
POINT
  5
1D1
330
1C9
100
AcDbEntity
  8
Defpoints
 62
     0
100
AcDbPoint
 10
5.0
 20
83.20085567852732
 30
0.0
  0
POINT
  5
1D2
330
1C9
100
AcDbEntity
  8
Defpoints
 62
     0
100
AcDbPoint
 10
46.34862297099063
 20
5.850959166963992
 30
0.0
  0
ENDBLK
  5
1D4
330
1C9
100
AcDbEntity
  8
0
100
AcDbBlockEnd
  0
BLOCK
  5
1E3
330
1D7
100
AcDbEntity
  8
0
100
AcDbBlockBegin
  2
*D9
 70
     1
 10
0.0
 20
0.0
 30
0.0
  3
*D9
  1

  0
LINE
  5
1D8
330
1D7
100
AcDbEntity
  8
0
 62
     5
370
    -2
100
AcDbLine
 10
32.50000000000001
 20
99.99999999999998
 30
0.0
 11
63.6810835670758
 21
99.99999999999998
 31
0.0
  0
LINE
  5
1D9
330
1D7
100
AcDbEntity
  8
0
 62
     5
370
    -2
100
AcDbLine
 10
32.50000000000001
 20
92.49999999999998
 30
0.0
 11
63.6810835670758
 21
92.49999999999998
 31
0.0
  0
LINE
  5
1DA
330
1D7
100
AcDbEntity
  8
0
 62
     5
370
    -2
100
AcDbLine
 10
62.4310835670758
 20
105.0
 30
0.0
 11
62.4310835670758
 21
109.9999999999999
 31
0.0
  0
LINE
  5
1DB
330
1D7
100
AcDbEntity
  8
0
 62
     5
370
    -2
100
AcDbLine
 10
62.4310835670758
 20
87.49999999999998
 30
0.0
 11
62.4310835670758
 21
62.49999999999997
 31
0.0
  0
LINE
  5
1DC
330
1D7
100
AcDbEntity
  8
0
 62
     5
370
    -2
100
AcDbLine
 10
62.4310835670758
 20
99.99999999999998
 30
0.0
 11
62.4310835670758
 21
92.49999999999998
 31
0.0
  0
SOLID
  5
1DD
330
1D7
100
AcDbEntity
  8
0
 62
     5
100
AcDbTrace
 10
61.59775023374247
 20
105.0
 30
0.0
 11
63.26441690040914
 21
105.0
 31
0.0
 12
62.4310835670758
 22
99.99999999999998
 32
0.0
 13
62.4310835670758
 23
99.99999999999998
 33
0.0
  0
SOLID
  5
1DE
330
1D7
100
AcDbEntity
  8
0
 62
     5
100
AcDbTrace
 10
61.59775023374247
 20
87.49999999999998
 30
0.0
 11
63.26441690040914
 21
87.49999999999998
 31
0.0
 12
62.4310835670758
 22
92.49999999999998
 32
0.0
 13
62.4310835670758
 23
92.49999999999998
 33
0.0
  0
MTEXT
  5
1DF
330
1D7
100
AcDbEntity
  8
0
 62
     5
100
AcDbMText
 10
55.93108356707578
 20
72.49999999999999
 30
0.0
 40
7.0
 41
0.0
 71
     5
 72
     1
  1
7.5
 11
0.0000000000000001
 21
1.0
 31
0.0
 73
     1
 44
1.0
1001
ACAD
1000
MTEXTBEGIN
1070
    73
1070
     1
1070
    44
1040
1.0
1070
    74
1070
     0
1000
MTEXTEND
  0
POINT
  5
1E0
330
1D7
100
AcDbEntity
  8
Defpoints
 62
     0
100
AcDbPoint
 10
27.50000000000001
 20
100.0
 30
0.0
  0
POINT
  5
1E1
330
1D7
100
AcDbEntity
  8
Defpoints
 62
     0
100
AcDbPoint
 10
27.50000000000001
 20
92.49999999999998
 30
0.0
  0
POINT
  5
1E2
330
1D7
100
AcDbEntity
  8
Defpoints
 62
     0
100
AcDbPoint
 10
62.4310835670758
 20
92.49999999999998
 30
0.0
  0
ENDBLK
  5
1E4
330
1D7
100
AcDbEntity
  8
0
100
AcDbBlockEnd
  0
ENDSEC
  0
SECTION
  2
ENTITIES
  0
LINE
  5
2D
330
1F
100
AcDbEntity
  8
0
100
AcDbLine
 10
0.0
 20
100.0
 30
0.0
 11
50.0
 21
100.0
 31
0.0
  0
LINE
  5
2E
330
1F
100
AcDbEntity
  8
0
100
AcDbLine
 10
0.0
 20
0.0
 30
0.0
 11
0.0
 21
100.0
 31
0.0
  0
LINE
  5
30
330
1F
100
AcDbEntity
  8
0
100
AcDbLine
 10
5.0
 20
16.79914432147268
 30
0.0
 11
5.000000000000003
 21
83.2008556785273
 31
0.0
  0
LINE
  5
33
330
1F
100
AcDbEntity
  8
0
 62
     5
100
AcDbLine
 10
27.50000000000001
 20
87.42041284443848
 30
0.0
 11
27.50000000000001
 21
104.5032728335383
 31
0.0
  0
LINE
  5
35
330
1F
100
AcDbEntity
  8
0
100
AcDbLine
 10
12.30275405801873
 20
91.17041326326127
 30
0.0
 11
46.34862297099062
 21
94.149040833036
 31
0.0
  0
DIMENSION
  5
3F
330
1F
100
AcDbEntity
  8
0
100
AcDbDimension
  2
*D1
 10
-27.69028683014995
 20
0.0000000000000078
 30
0.0
 11
-34.19028683014995
 21
50.0
 31
0.0
 70
    32
 71
     5
 42
100.0
  3
ISO-25
100
AcDbAlignedDimension
 13
0.0
 23
100.0
 33
0.0
 14
0.0
 24
0.0
 34
0.0
 50
90.0
100
AcDbRotatedDimension
  0
TEXT
  5
6A
330
1F
100
AcDbEntity
  8
0
100
AcDbText
 10
-29.70502418149556
 20
-46.58690848605488
 30
0.0
 40
20.0
  1
[-100505
100
AcDbText
  0
LINE
  5
14D
330
1F
100
AcDbEntity
  8
0
100
AcDbLine
 10
50.0
 20
98.13381962540297
 30
0.0
 11
50.0
 21
100.0
 31
0.0
  0
ARC
  5
15E
330
1F
100
AcDbEntity
  8
0
100
AcDbCircle
 10
13.0
 20
83.2008556785273
 30
0.0
 40
8.0
100
AcDbArc
 50
95.00000000000001
 51
180.0
  0
ARC
  5
15F
330
1F
100
AcDbEntity
  8
0
100
AcDbCircle
 10
45.99999999999999
 20
98.13381962540297
 30
0.0
 40
4.0
100
AcDbArc
 50
275.0
 51
0.0
  0
ARC
  5
161
330
1F
100
AcDbEntity
  8
0
100
AcDbCircle
 10
45.99999999999999
 20
1.866180374597007
 30
0.0
 40
4.0
100
AcDbArc
 50
0.0
 51
85.00000000000001
  0
LINE
  5
162
330
1F
100
AcDbEntity
  8
0
100
AcDbLine
 10
0.0
 20
0.0
 30
0.0
 11
50.0
 21
0.0
 31
0.0
  0
LINE
  5
163
330
1F
100
AcDbEntity
  8
0
100
AcDbLine
 10
12.30275405801873
 20
8.829586736738718
 30
0.0
 11
46.34862297099062
 21
5.850959166963988
 31
0.0
  0
ARC
  5
164
330
1F
100
AcDbEntity
  8
0
100
AcDbCircle
 10
13.0
 20
16.79914432147268
 30
0.0
 40
8.0
100
AcDbArc
 50
180.0
 51
265.0
  0
LINE
  5
166
330
1F
100
AcDbEntity
  8
0
100
AcDbLine
 10
50.0
 20
1.866180374597007
 30
0.0
 11
50.0
 21
0.0
 31
0.0
  0
DIMENSION
  5
169
330
1F
100
AcDbEntity
  8
0
100
AcDbDimension
  2
*D2
 10
50.0
 20
130.0738363468559
 30
0.0
 11
25.0
 21
136.5738363468559
 31
0.0
 70
    32
 71
     5
 42
50.0
  3
ISO-25
100
AcDbAlignedDimension
 13
0.0
 23
100.0
 33
0.0
 14
50.0
 24
100.0
 34
0.0
100
AcDbRotatedDimension
  0
DIMENSION
  5
176
330
1F
100
AcDbEntity
  8
0
100
AcDbDimension
  2
*D3
 10
0.0000000000000006
 20
109.0853366755178
 30
0.0
 11
-15.33333333333333
 21
115.5853366755178
 31
0.0
 70
    32
 71
     5
 42
5.000000000000003
  3
ISO-25
100
AcDbAlignedDimension
 13
5.000000000000003
 23
83.2008556785273
 33
0.0
 14
0.0
 24
100.0
 34
0.0
100
AcDbRotatedDimension
  0
DIMENSION
  5
185
330
1F
100
AcDbEntity
  8
0
100
AcDbDimension
  2
*D4
 10
5.000000000000006
 20
120.9073976373191
 30
0.0
 11
-13.49999999999999
 21
127.4073976373191
 31
0.0
 70
    32
 71
     5
 42
22.5
  3
ISO-25
100
AcDbAlignedDimension
 13
27.50000000000001
 23
104.5032728335383
 33
0.0
 14
5.000000000000003
 24
83.2008556785273
 34
0.0
100
AcDbRotatedDimension
  0
DIMENSION
  5
1A7
330
1F
100
AcDbEntity
  8
0
100
AcDbDimension
  2
*D5
 10
50.0
 20
120.9073976373191
 30
0.0
 11
68.5
 21
127.4073976373191
 31
0.0
 70
    32
 71
     5
 42
22.5
  3
ISO-25
100
AcDbAlignedDimension
 13
27.50000000000001
 23
104.5032728335383
 33
0.0
 14
50.0
 24
100.0
 34
0.0
100
AcDbRotatedDimension
  0
DIMENSION
  5
1B5
330
1F
100
AcDbEntity
  8
0
100
AcDbDimension
  2
*D6
 10
12.99999999999997
 20
16.79914432147263
 30
0.0
 11
22.31599153549598
 21
22.32846731996702
 31
0.0
 70
   164
 71
     5
 42
7.999999999999946
  3
ISO-25
100
AcDbRadialDimension
 15
6.120498558402999
 25
12.71595195335374
 35
0.0
 40
0.0
1001
ACAD
1000
DSTYLE
1002
{
1070
   279
1070
     1
1070
   288
1070
     1
1002
}
  0
DIMENSION
  5
1BE
330
1F
100
AcDbEntity
  8
0
100
AcDbDimension
  2
*D7
 10
46.0
 20
1.866180374597007
 30
0.0
 11
65.52003818484067
 21
13.71224387153437
 31
0.0
 70
    36
 71
     5
 42
3.999999999999992
  3
ISO-25
100
AcDbRadialDimension
 15
49.41956873311077
 25
3.941403176980195
 35
0.0
 40
0.0
1001
ACAD
1000
DSTYLE
1002
{
1070
   288
1070
     1
1002
}
  0
DIMENSION
  5
1C8
330
1F
100
AcDbEntity
  8
0
100
AcDbDimension
  2
*D8
 10
46.34862297099062
 20
5.850959166963988
 30
0.0
 11
37.62137397761693
 21
39.36047684430446
 31
0.0
 70
    34
 71
     5
 42
1.658062789394613
  3
ISO-25
100
AcDb2LineAngularDimension
 13
5.0
 23
16.79914432147268
 33
0.0
 14
5.000000000000003
 24
83.2008556785273
 34
0.0
 15
12.30275405801873
 25
8.829586736738718
 35
0.0
 16
38.730816358407
 26
26.4087476081821
 36
0.0
  0
DIMENSION
  5
1D6
330
1F
100
AcDbEntity
  8
0
100
AcDbDimension
  2
*D9
 10
62.4310835670758
 20
92.49999999999998
 30
0.0
 11
55.93108356707578
 21
72.49999999999999
 31
0.0
 70
    32
 71
     5
 42
7.5
  3
ISO-25
100
AcDbAlignedDimension
 13
27.50000000000001
 23
100.0
 33
0.0
 14
27.50000000000001
 24
92.49999999999998
 34
0.0
 50
90.0
100
AcDbRotatedDimension
  0
ENDSEC
  0
SECTION
  2
OBJECTS
  0
DICTIONARY
  5
C
330
0
100
AcDbDictionary
281
     1
  3
ACAD_COLOR
350
201
  3
ACAD_GROUP
350
D
  3
ACAD_LAYOUT
350
1A
  3
ACAD_MATERIAL
350
1EC
  3
ACAD_MLINESTYLE
350
17
  3
ACAD_PLOTSETTINGS
350
19
  3
ACAD_PLOTSTYLENAME
350
E
  3
ACAD_TABLESTYLE
350
202
  3
ACAD_VISUALSTYLE
350
1F0
  3
AcDbVariableDictionary
350
21D
  3
DWGPROPS
350
225
  0
DICTIONARY
  5
207
330
8
100
AcDbDictionary
280
     1
281
     1
  0
DICTIONARY
  5
22C
330
1CD
100
AcDbDictionary
280
     1
281
     1
  3
ACAD_MTEXT_RT
360
22D
  0
DICTIONARY
  5
201
102
{ACAD_REACTORS
330
C
102
}
330
C
100
AcDbDictionary
281
     1
  0
DICTIONARY
  5
D
102
{ACAD_REACTORS
330
C
102
}
330
C
100
AcDbDictionary
281
     1
  0
DICTIONARY
  5
1A
102
{ACAD_REACTORS
330
C
102
}
330
C
100
AcDbDictionary
281
     1
  3
Model
350
22
  3
ﾚｲｱｳﾄ1
350
1E
  3
ﾚｲｱｳﾄ2
350
26
  0
DICTIONARY
  5
1EC
102
{ACAD_REACTORS
330
C
102
}
330
C
100
AcDbDictionary
281
     1
  3
ByBlock
350
1EE
  3
ByLayer
350
1ED
  3
Global
350
1EF
  0
DICTIONARY
  5
17
102
{ACAD_REACTORS
330
C
102
}
330
C
100
AcDbDictionary
281
     1
  3
Standard
350
18
  0
DICTIONARY
  5
19
102
{ACAD_REACTORS
330
C
102
}
330
C
100
AcDbDictionary
281
     1
  0
ACDBDICTIONARYWDFLT
  5
E
102
{ACAD_REACTORS
330
C
102
}
330
C
100
AcDbDictionary
281
     1
  3
Normal
350
F
100
AcDbDictionaryWithDefault
340
F
  0
DICTIONARY
  5
202
102
{ACAD_REACTORS
330
C
102
}
330
C
100
AcDbDictionary
281
     1
  3
Standard
350
203
  0
DICTIONARY
  5
1F0
102
{ACAD_REACTORS
330
C
102
}
330
C
100
AcDbDictionary
281
     1
  3
2dWireframe
350
1F6
  3
3D Hidden
350
1F8
  3
3dWireframe
350
1F7
  3
Basic
350
1F5
  3
Brighten
350
1FC
  3
ColorChange
350
200
  3
Conceptual
350
1F9
  3
Dim
350
1FB
  3
Facepattern
350
1FF
  3
Flat
350
1F1
  3
FlatWithEdges
350
1F2
  3
Gouraud
350
1F3
  3
GouraudWithEdges
350
1F4
  3
Linepattern
350
1FE
  3
Realistic
350
1FA
  3
Thicken
350
1FD
  0
DICTIONARY
  5
21D
102
{ACAD_REACTORS
330
C
102
}
330
C
100
AcDbDictionary
281
     1
  3
CTABLESTYLE
350
21E
  3
DIMASSOC
350
221
  3
INDEXCTL
350
220
  3
SORTENTS
350
21F
  0
XRECORD
  5
225
102
{ACAD_REACTORS
330
C
102
}
330
C
100
AcDbXrecord
280
     1
  1
DWGPROPS COOKIE
  2

  3

  4

  6

  7

  8
K-takayama
  9

300
=
301
=
302
=
303
=
304
=
305
=
306
=
307
=
308
=
309
=
 40
0.0179670949074074
 41
2457229.701635197
 42
2457276.605749063
  1

 90
        0
  0
XRECORD
  5
22D
102
{ACAD_REACTORS
330
22C
102
}
330
22C
100
AcDbXrecord
280
     1
 40
2578.0
  1
95°
  0
LAYOUT
  5
22
102
{ACAD_XDICTIONARY
360
228
102
}
102
{ACAD_REACTORS
330
1A
102
}
330
1A
100
AcDbPlotSettings
  1

  2
Brother MFC-6490CN Printer
  4
A4
  6

 40
3.757083177566528
 41
3.757076978683471
 42
3.841751098632812
 43
3.757080078125
 44
209.9733276367187
 45
296.9259948730469
 46
0.0
 47
0.0
 48
-58.88033042056213
 49
-57.16587690686214
140
139.865017879488
141
149.7259694196451
142
1.0
143
1.022321750587118
 70
 11952
 72
     1
 73
     1
 74
     4
  7
monochrome.ctb
 75
     0
147
0.9781656307573436
148
58.88033042056213
149
57.16587690686214
100
AcDbLayout
  1
Model
 70
     1
 71
     0
 10
0.0
 20
0.0
 11
12.0
 21
9.0
 12
0.0
 22
0.0
 32
0.0
 14
0.0
 24
0.0
 34
0.0
 15
0.0
 25
0.0
 35
0.0
146
0.0
 13
0.0
 23
0.0
 33
0.0
 16
1.0
 26
0.0
 36
0.0
 17
0.0
 27
1.0
 37
0.0
 76
     0
330
1F
331
1EA
  0
LAYOUT
  5
1E
102
{ACAD_XDICTIONARY
360
226
102
}
102
{ACAD_REACTORS
330
1A
102
}
330
1A
100
AcDbPlotSettings
  1

  2
Microsoft Office Document Image Writer
  4

  6

 40
0.0
 41
0.0
 42
0.0
 43
0.0
 44
0.0
 45
0.0
 46
0.0
 47
0.0
 48
0.0
 49
0.0
140
0.0
141
0.0
142
1.0
143
1.0
 70
   688
 72
     0
 73
     0
 74
     5
  7
monochrome.ctb
 75
    16
147
1.0
148
0.0
149
0.0
100
AcDbLayout
  1
ﾚｲｱｳﾄ1
 70
     1
 71
     1
 10
0.0
 20
0.0
 11
420.0
 21
297.0
 12
0.0
 22
0.0
 32
0.0
 14
1.000000000000000E+20
 24
1.000000000000000E+20
 34
1.000000000000000E+20
 15
-1.000000000000000E+20
 25
-1.000000000000000E+20
 35
-1.000000000000000E+20
146
0.0
 13
0.0
 23
0.0
 33
0.0
 16
1.0
 26
0.0
 36
0.0
 17
0.0
 27
1.0
 37
0.0
 76
     0
330
1B
  0
LAYOUT
  5
26
102
{ACAD_XDICTIONARY
360
22A
102
}
102
{ACAD_REACTORS
330
1A
102
}
330
1A
100
AcDbPlotSettings
  1

  2
Microsoft Office Document Image Writer
  4

  6

 40
0.0
 41
0.0
 42
0.0
 43
0.0
 44
0.0
 45
0.0
 46
0.0
 47
0.0
 48
0.0
 49
0.0
140
0.0
141
0.0
142
1.0
143
1.0
 70
   688
 72
     0
 73
     0
 74
     5
  7
monochrome.ctb
 75
    16
147
1.0
148
0.0
149
0.0
100
AcDbLayout
  1
ﾚｲｱｳﾄ2
 70
     1
 71
     2
 10
0.0
 20
0.0
 11
12.0
 21
9.0
 12
0.0
 22
0.0
 32
0.0
 14
0.0
 24
0.0
 34
0.0
 15
0.0
 25
0.0
 35
0.0
146
0.0
 13
0.0
 23
0.0
 33
0.0
 16
1.0
 26
0.0
 36
0.0
 17
0.0
 27
1.0
 37
0.0
 76
     0
330
23
  0
MATERIAL
  5
1EE
102
{ACAD_XDICTIONARY
360
230
102
}
102
{ACAD_REACTORS
330
1EC
102
}
330
1EC
100
AcDbMaterial
  1
ByBlock
  0
MATERIAL
  5
1ED
102
{ACAD_XDICTIONARY
360
22E
102
}
102
{ACAD_REACTORS
330
1EC
102
}
330
1EC
100
AcDbMaterial
  1
ByLayer
  0
MATERIAL
  5
1EF
102
{ACAD_XDICTIONARY
360
232
102
}
102
{ACAD_REACTORS
330
1EC
102
}
330
1EC
100
AcDbMaterial
  1
Global
  0
MLINESTYLE
  5
18
102
{ACAD_REACTORS
330
17
102
}
330
17
100
AcDbMlineStyle
  2
STANDARD
 70
     0
  3

 62
   256
 51
90.0
 52
90.0
 71
     2
 49
0.5
 62
   256
  6
BYLAYER
 49
-0.5
 62
   256
  6
BYLAYER
  0
ACDBPLACEHOLDER
  5
F
102
{ACAD_REACTORS
330
E
102
}
330
E
  0
TABLESTYLE
  5
203
102
{ACAD_XDICTIONARY
360
234
102
}
102
{ACAD_REACTORS
330
202
102
}
330
202
100
AcDbTableStyle
  3
Standard
 70
     0
 71
     0
 40
1.5
 41
1.5
280
     0
281
     0
  7
Standard
140
4.5
170
     2
 62
     0
 63
     7
283
     0
274
    -2
284
     1
 64
     0
275
    -2
285
     1
 65
     0
276
    -2
286
     1
 66
     0
277
    -2
287
     1
 67
     0
278
    -2
288
     1
 68
     0
279
    -2
289
     1
 69
     0
  7
Standard
140
6.0
170
     5
 62
     0
 63
     7
283
     0
274
    -2
284
     1
 64
     0
275
    -2
285
     1
 65
     0
276
    -2
286
     1
 66
     0
277
    -2
287
     1
 67
     0
278
    -2
288
     1
 68
     0
279
    -2
289
     1
 69
     0
  7
Standard
140
4.5
170
     5
 62
     0
 63
     7
283
     0
274
    -2
284
     1
 64
     0
275
    -2
285
     1
 65
     0
276
    -2
286
     1
 66
     0
277
    -2
287
     1
 67
     0
278
    -2
288
     1
 68
     0
279
    -2
289
     1
 69
     0
  0
VISUALSTYLE
  5
1F6
102
{ACAD_REACTORS
330
1F0
102
}
330
1F0
100
AcDbVisualStyle
  2
2dWireframe
 70
     4
 71
     0
 72
     2
 73
     0
 90
        0
 40
-0.6
 41
-30.0
 62
     5
 63
     7
 74
     1
 91
        4
 64
     7
 65
   257
 75
     1
175
     1
 42
1.0
 92
        0
 66
   257
 43
1.0
 76
     1
 77
     6
 78
     2
 67
     7
 79
     5
170
     0
171
     0
290
     0
174
     0
 93
        1
 44
0.0
173
     0
291
     0
 45
0.0
1001
ACAD
1000
AcDbSavedByObjectVersion
1070
     0
  0
VISUALSTYLE
  5
1F8
102
{ACAD_REACTORS
330
1F0
102
}
330
1F0
100
AcDbVisualStyle
  2
3D Hidden
 70
     6
 71
     1
 72
     2
 73
     2
 90
        0
 40
-0.6
 41
-30.0
 62
     5
 63
     7
 74
     2
 91
        2
 64
     7
 65
   257
 75
     2
175
     1
 42
40.0
 92
        0
 66
   257
 43
1.0
 76
     1
 77
     6
 78
     2
 67
     7
 79
     3
170
     0
171
     0
290
     0
174
     0
 93
        1
 44
0.0
173
     0
291
     0
 45
0.0
1001
ACAD
1000
AcDbSavedByObjectVersion
1070
     0
  0
VISUALSTYLE
  5
1F7
102
{ACAD_REACTORS
330
1F0
102
}
330
1F0
100
AcDbVisualStyle
  2
3dWireframe
 70
     5
 71
     0
 72
     2
 73
     0
 90
        0
 40
-0.6
 41
-30.0
 62
     5
 63
     7
 74
     1
 91
        4
 64
     7
 65
   257
 75
     1
175
     1
 42
1.0
 92
        0
 66
   257
 43
1.0
 76
     1
 77
     6
 78
     2
 67
     7
 79
     5
170
     0
171
     0
290
     0
174
     0
 93
        1
 44
0.0
173
     0
291
     0
 45
0.0
1001
ACAD
1000
AcDbSavedByObjectVersion
1070
     0
  0
VISUALSTYLE
  5
1F5
102
{ACAD_REACTORS
330
1F0
102
}
330
1F0
100
AcDbVisualStyle
  2
Basic
 70
     7
 71
     1
 72
     0
 73
     1
 90
        0
 40
-0.6
 41
-30.0
 62
     5
 63
     7
 74
     0
 91
        4
 64
     7
 65
   257
 75
     1
175
     1
 42
1.0
 92
        8
 66
     7
 43
1.0
 76
     1
 77
     6
 78
     2
 67
     7
 79
     5
170
     0
171
     0
290
     0
174
     0
 93
        1
 44
0.0
173
     0
291
     1
 45
0.0
1001
ACAD
1000
AcDbSavedByObjectVersion
1070
     0
  0
VISUALSTYLE
  5
1FC
102
{ACAD_REACTORS
330
1F0
102
}
330
1F0
100
AcDbVisualStyle
  2
Brighten
 70
    12
 71
     2
 72
     2
 73
     0
 90
        0
 40
-0.6
 41
-30.0
 62
     5
 63
     7
 74
     1
 91
        4
 64
     7
 65
   257
 75
     1
175
     1
 42
1.0
 92
        8
 66
     7
 43
1.0
 76
     1
 77
     6
 78
     2
 67
     7
 79
     5
170
     0
171
     0
290
     0
174
     0
 93
        1
 44
50.0
173
     0
291
     1
 45
0.0
1001
ACAD
1000
AcDbSavedByObjectVersion
1070
     0
  0
VISUALSTYLE
  5
200
102
{ACAD_REACTORS
330
1F0
102
}
330
1F0
100
AcDbVisualStyle
  2
ColorChange
 70
    16
 71
     2
 72
     2
 73
     3
 90
        0
 40
-0.6
 41
-30.0
 62
     5
 63
     8
 74
     1
 91
        4
 64
     7
 65
   257
 75
     1
175
     1
 42
1.0
 92
        8
 66
     8
 43
1.0
 76
     1
 77
     6
 78
     2
 67
     7
 79
     5
170
     0
171
     0
290
     0
174
     0
 93
        1
 44
0.0
173
     0
291
     1
 45
0.0
1001
ACAD
1000
AcDbSavedByObjectVersion
1070
     0
  0
VISUALSTYLE
  5
1F9
102
{ACAD_REACTORS
330
1F0
102
}
330
1F0
100
AcDbVisualStyle
  2
Conceptual
 70
     9
 71
     3
 72
     2
 73
     0
 90
        0
 40
-0.6
 41
-30.0
 62
     5
 63
     7
 74
     2
 91
        2
 64
     7
 65
   257
 75
     1
175
     1
 42
40.0
 92
        8
 66
     7
 43
1.0
 76
     1
 77
     6
 78
     2
 67
     7
 79
     3
170
     0
171
     0
290
     0
174
     0
 93
        1
 44
0.0
173
     0
291
     0
 45
0.0
1001
ACAD
1000
AcDbSavedByObjectVersion
1070
     0
  0
VISUALSTYLE
  5
1FB
102
{ACAD_REACTORS
330
1F0
102
}
330
1F0
100
AcDbVisualStyle
  2
Dim
 70
    11
 71
     2
 72
     2
 73
     0
 90
        0
 40
-0.6
 41
-30.0
 62
     5
 63
     7
 74
     1
 91
        4
 64
     7
 65
   257
 75
     1
175
     1
 42
1.0
 92
        8
 66
     7
 43
1.0
 76
     1
 77
     6
 78
     2
 67
     7
 79
     5
170
     0
171
     0
290
     0
174
     0
 93
        1
 44
-50.0
173
     0
291
     1
 45
0.0
1001
ACAD
1000
AcDbSavedByObjectVersion
1070
     0
  0
VISUALSTYLE
  5
1FF
102
{ACAD_REACTORS
330
1F0
102
}
330
1F0
100
AcDbVisualStyle
  2
Facepattern
 70
    15
 71
     2
 72
     2
 73
     0
 90
        0
 40
-0.6
 41
-30.0
 62
     5
 63
     7
 74
     1
 91
        4
 64
     7
 65
   257
 75
     1
175
     1
 42
1.0
 92
        8
 66
     7
 43
1.0
 76
     1
 77
     6
 78
     2
 67
     7
 79
     5
170
     0
171
     0
290
     0
174
     0
 93
        1
 44
0.0
173
     0
291
     1
 45
0.0
1001
ACAD
1000
AcDbSavedByObjectVersion
1070
     0
  0
VISUALSTYLE
  5
1F1
102
{ACAD_REACTORS
330
1F0
102
}
330
1F0
100
AcDbVisualStyle
  2
Flat
 70
     0
 71
     2
 72
     1
 73
     1
 90
        2
 40
-0.6
 41
30.0
 62
     5
 63
     7
 74
     0
 91
        4
 64
     7
 65
   257
 75
     1
175
     1
 42
1.0
 92
        8
 66
     7
 43
1.0
 76
     1
 77
     6
 78
     2
 67
     7
 79
     5
170
     0
171
     0
290
     0
174
     0
 93
       13
 44
0.0
173
     0
291
     1
 45
0.0
1001
ACAD
1000
AcDbSavedByObjectVersion
1070
     0
  0
VISUALSTYLE
  5
1F2
102
{ACAD_REACTORS
330
1F0
102
}
330
1F0
100
AcDbVisualStyle
  2
FlatWithEdges
 70
     1
 71
     2
 72
     1
 73
     1
 90
        2
 40
-0.6
 41
30.0
 62
     5
 63
     7
 74
     1
 91
        4
 64
     7
 65
   257
 75
     1
175
     1
 42
1.0
 92
        0
 66
   257
 43
1.0
 76
     1
 77
     6
 78
     2
 67
     7
 79
     5
170
     0
171
     0
290
     0
174
     0
 93
       13
 44
0.0
173
     0
291
     1
 45
0.0
1001
ACAD
1000
AcDbSavedByObjectVersion
1070
     0
  0
VISUALSTYLE
  5
1F3
102
{ACAD_REACTORS
330
1F0
102
}
330
1F0
100
AcDbVisualStyle
  2
Gouraud
 70
     2
 71
     2
 72
     2
 73
     1
 90
        2
 40
-0.6
 41
30.0
 62
     5
 63
     7
 74
     0
 91
        4
 64
     7
 65
   257
 75
     1
175
     1
 42
1.0
 92
        0
 66
     7
 43
1.0
 76
     1
 77
     6
 78
     2
 67
     7
 79
     5
170
     0
171
     0
290
     0
174
     0
 93
       13
 44
0.0
173
     0
291
     1
 45
0.0
1001
ACAD
1000
AcDbSavedByObjectVersion
1070
     0
  0
VISUALSTYLE
  5
1F4
102
{ACAD_REACTORS
330
1F0
102
}
330
1F0
100
AcDbVisualStyle
  2
GouraudWithEdges
 70
     3
 71
     2
 72
     2
 73
     1
 90
        2
 40
-0.6
 41
30.0
 62
     5
 63
     7
 74
     1
 91
        4
 64
     7
 65
   257
 75
     1
175
     1
 42
1.0
 92
        0
 66
   257
 43
1.0
 76
     1
 77
     6
 78
     2
 67
     7
 79
     5
170
     0
171
     0
290
     0
174
     0
 93
       13
 44
0.0
173
     0
291
     1
 45
0.0
1001
ACAD
1000
AcDbSavedByObjectVersion
1070
     0
  0
VISUALSTYLE
  5
1FE
102
{ACAD_REACTORS
330
1F0
102
}
330
1F0
100
AcDbVisualStyle
  2
Linepattern
 70
    14
 71
     2
 72
     2
 73
     0
 90
        0
 40
-0.6
 41
-30.0
 62
     5
 63
     7
 74
     1
 91
        4
 64
     7
 65
   257
 75
     7
175
     7
 42
1.0
 92
        8
 66
     7
 43
1.0
 76
     1
 77
     6
 78
     2
 67
     7
 79
     5
170
     0
171
     0
290
     0
174
     0
 93
        1
 44
0.0
173
     0
291
     1
 45
0.0
1001
ACAD
1000
AcDbSavedByObjectVersion
1070
     0
  0
VISUALSTYLE
  5
1FA
102
{ACAD_REACTORS
330
1F0
102
}
330
1F0
100
AcDbVisualStyle
  2
Realistic
 70
     8
 71
     2
 72
     2
 73
     0
 90
        0
 40
-0.6
 41
-30.0
 62
     5
 63
     7
 74
     1
 91
        0
 64
     7
 65
   257
 75
     1
175
     1
 42
1.0
 92
        8
 66
     8
 43
1.0
 76
     1
 77
     6
 78
     2
 67
     7
 79
     5
170
     0
171
     0
290
     0
174
     0
 93
       13
 44
0.0
173
     0
291
     0
 45
0.0
1001
ACAD
1000
AcDbSavedByObjectVersion
1070
     0
  0
VISUALSTYLE
  5
1FD
102
{ACAD_REACTORS
330
1F0
102
}
330
1F0
100
AcDbVisualStyle
  2
Thicken
 70
    13
 71
     2
 72
     2
 73
     0
 90
        0
 40
-0.6
 41
-30.0
 62
     5
 63
     7
 74
     1
 91
        4
 64
     7
 65
   257
 75
     1
175
     1
 42
1.0
 92
       12
 66
     7
 43
1.0
 76
     1
 77
     6
 78
     2
 67
     7
 79
     5
170
     0
171
     0
290
     0
174
     0
 93
        1
 44
0.0
173
     0
291
     1
 45
0.0
1001
ACAD
1000
AcDbSavedByObjectVersion
1070
     0
  0
DICTIONARYVAR
  5
21E
102
{ACAD_REACTORS
330
21D
102
}
330
21D
100
DictionaryVariables
280
     0
  1
STANDARD
  0
DICTIONARYVAR
  5
221
102
{ACAD_REACTORS
330
21D
102
}
330
21D
100
DictionaryVariables
280
     0
  1
1
  0
DICTIONARYVAR
  5
220
102
{ACAD_REACTORS
330
21D
102
}
330
21D
100
DictionaryVariables
280
     0
  1
0
  0
DICTIONARYVAR
  5
21F
102
{ACAD_REACTORS
330
21D
102
}
330
21D
100
DictionaryVariables
280
     0
  1
127
  0
DICTIONARY
  5
228
330
22
100
AcDbDictionary
280
     1
281
     1
  3
ACAD_XREC_ROUNDTRIP
360
229
  0
DICTIONARY
  5
226
330
1E
100
AcDbDictionary
280
     1
281
     1
  3
ACAD_XREC_ROUNDTRIP
360
227
  0
DICTIONARY
  5
22A
330
26
100
AcDbDictionary
280
     1
281
     1
  3
ACAD_XREC_ROUNDTRIP
360
22B
  0
DICTIONARY
  5
230
330
1EE
100
AcDbDictionary
280
     1
281
     1
  3
ACAD_XREC_ROUNDTRIP
360
231
  0
DICTIONARY
  5
22E
330
1ED
100
AcDbDictionary
280
     1
281
     1
  3
ACAD_XREC_ROUNDTRIP
360
22F
  0
DICTIONARY
  5
232
330
1EF
100
AcDbDictionary
280
     1
281
     1
  3
ACAD_XREC_ROUNDTRIP
360
233
  0
DICTIONARY
  5
234
330
203
100
AcDbDictionary
280
     1
281
     1
  3
ACAD_XREC_ROUNDTRIP
360
235
  0
XRECORD
  5
229
102
{ACAD_REACTORS
330
228
102
}
330
228
100
AcDbXrecord
280
     1
102
SHADEPLOT
 70
     0
102
SHADEPLOTRESLEVEL
 70
     2
102
SHADEPLOTCUSTOMDPI
 70
   300
  0
XRECORD
  5
227
102
{ACAD_REACTORS
330
226
102
}
330
226
100
AcDbXrecord
280
     1
102
SHADEPLOT
 70
     0
102
SHADEPLOTRESLEVEL
 70
     2
102
SHADEPLOTCUSTOMDPI
 70
   300
  0
XRECORD
  5
22B
102
{ACAD_REACTORS
330
22A
102
}
330
22A
100
AcDbXrecord
280
     1
102
SHADEPLOT
 70
     0
102
SHADEPLOTRESLEVEL
 70
     2
102
SHADEPLOTCUSTOMDPI
 70
   300
  0
XRECORD
  5
231
102
{ACAD_REACTORS
330
230
102
}
330
230
100
AcDbXrecord
280
     1
102
MATERIAL
148
0.0
149
0.0
149
0.0
 93
        0
 94
       63
282
     0
 72
     1
 77
     1
171
     1
175
     1
179
     1
273
     0
  0
XRECORD
  5
22F
102
{ACAD_REACTORS
330
22E
102
}
330
22E
100
AcDbXrecord
280
     1
102
MATERIAL
148
0.0
149
0.0
149
0.0
 93
        0
 94
       63
282
     0
 72
     1
 77
     1
171
     1
175
     1
179
     1
273
     0
  0
XRECORD
  5
233
102
{ACAD_REACTORS
330
232
102
}
330
232
100
AcDbXrecord
280
     1
102
MATERIAL
148
0.0
149
0.0
149
0.0
 93
        0
 94
       63
282
     0
 72
     1
 77
     1
171
     1
175
     1
179
     1
273
     0
  0
XRECORD
  5
235
102
{ACAD_REACTORS
330
234
102
}
330
234
100
AcDbXrecord
280
     1
102
ACAD_ROUNDTRIP_PRE2007_TABLESTYLE
 90
      512
 91
        0
  1

 92
      512
 93
        0
  2

 94
      512
 95
        0
  3

  0
ENDSEC
  0
EOF
